Working with Various Audio Formats
At the Zhalindorian Embassy, we have the capability to work with a variety of audio formats including: Wave (2 Ch through 5.1) FLAC (Levels 1 through 6) DTS (2 Ch through 5.1) Dolby (AC3: 2 Ch through 5.1) AIFF (22.5, 44.1, and 96 KHz) For some examples, we will use the song, “El Varmito, El Diablo (an EDM/Techno Song). A stereo version is here. The characterisistics of the audio are shown to the right. A 5.1 WAV version is here. The characterisistics of the audio are shown to the right.
[Audio] Format : PCM Format settings, Endianness : Little Format settings, Sign : Signed Codec ID : 1 Duration : 6mn 0s Bit rate mode : Constant Bit rate : 1 536 Kbps Channel(s) : 2 channels Sampling rate : 48.0 KHz Bit depth : 16 bits Stream size : 65.9 MiB (100%)
[Audio] Format : PCM Format settings, Endianness : Little Format settings, Sign : Signed Codec ID : 00001000-0000-0100-8000-00AA00389B71 Duration : 6mn 0s Bit rate mode : Constant Bit rate : 4 608 Kbps Channel(s) : 6 channels Channel positions : Front: L C R, Back: L R, LFE Sampling rate : 48.0 KHz Bit depth : 16 bits Stream size : 198 MiB (100%)
Next Page Zhalindor