A Dolby version is here. The characterisistics of the audio are shown to the right. A DTS version is here. The characterisistics of the audio are shown to the right.
[Audio] Format : AC-3 Format/Info : Audio Coding 3 Mode extension : CM (complete main) Format settings, Endianness : Big Duration : 6mn 0s Bit rate mode : Constant Bit rate : 448 Kbps Channel(s) : 6 channels Channel positions : Front: L C R, Side: L R, LFE Sampling rate : 48.0 KHz Bit depth : 16 bits Compression mode : Lossy Stream size : 19.2 MiB (100%)
[Audio] Format : DTS Format/Info : Digital Theater Systems Mode : 16 Format settings, Endianness : Big Duration : 6mn 0s Bit rate mode : Constant Bit rate : 1 510 Kbps Channel(s) : 6 channels Channel positions : Front: L C R, Side: L R, LFE Sampling rate : 48.0 KHz Bit depth : 24 bits Compression mode : Lossy Stream size : 64.8 MiB
Prev Page Zhalindor